周杰伦资源网

 找回密码
 注册周杰伦资源网 QQ群33526328

QQ登录

只需一步,快速开始

用百度帐号登录

只需两步,快速登录

查看: 2673|回复: 35

[1080P现场] 2016QQ音乐盛典颁奖典礼卫星源码版-周杰伦部分[TS][1080i][1.5G]

[复制链接]

该用户从未签到

1

好友

0

听众

2万

积分

管理员

Rank: 9Rank: 9Rank: 9

积分
20328
发表于 2016-3-27 12:07:18 | 显示全部楼层 |阅读模式
2016QQ音乐盛典颁奖典礼-NGB-1080i-JayClip-by-hdjay_root.ts.jpg
ROOT出品 必属精品
  1. General
  2. ID                             : 1 (0x1)
  3. Complete name                  : I:\2016QQ音乐盛典颁奖典礼-NGB-1080i-JayClip-by-hdjay_root.ts
  4. Format                         : MPEG-TS
  5. File size                      : 1.48 GiB
  6. Duration                       : 3h 52mn
  7. Overall bit rate mode          : Constant
  8. Overall bit rate               : 908 Kbps

  9. Video
  10. ID                             : 256 (0x100)
  11. Menu ID                        : 1 (0x1)
  12. Format                         : AVC
  13. Format/Info                    : Advanced Video Codec
  14. Format profile                 : Main@L4
  15. Format settings, CABAC         : Yes
  16. Format settings, ReFrames      : 4 frames
  17. Codec ID                       : 27
  18. Duration                       : 11mn 49s
  19. Bit rate                       : 87.6 Kbps
  20. Width                          : 1 920 pixels
  21. Height                         : 1 080 pixels
  22. Display aspect ratio           : 16:9
  23. Frame rate                     : 25.000 fps
  24. Color space                    : YUV
  25. Chroma subsampling             : 4:2:0
  26. Bit depth                      : 8 bits
  27. Scan type                      : Interlaced
  28. Scan type, store method        : Separated fields
  29. Scan order                     : Top Field First
  30. Bits/(Pixel*Frame)             : 0.002
  31. Stream size                    : 7.41 MiB (0%)
  32. Color range                    : Limited
  33. Color primaries                : BT.709
  34. Transfer characteristics       : BT.709
  35. Matrix coefficients            : BT.709

  36. Audio #1
  37. ID                             : 257 (0x101)
  38. Menu ID                        : 1 (0x1)
  39. Format                         : MPEG Audio
  40. Format version                 : Version 1
  41. Format profile                 : Layer 2
  42. Codec ID                       : 3
  43. Duration                       : 11mn 50s
  44. Bit rate mode                  : Constant
  45. Bit rate                       : 384 Kbps
  46. Channel(s)                     : 2 channels
  47. Sampling rate                  : 48.0 KHz
  48. Compression mode               : Lossy
  49. Delay relative to video        : -280ms
  50. Stream size                    : 32.5 MiB (2%)

  51. Audio #2
  52. ID                             : 258 (0x102)
  53. Menu ID                        : 1 (0x1)
  54. Format                         : MPEG Audio
  55. Format version                 : Version 1
  56. Format profile                 : Layer 2
  57. Codec ID                       : 3
  58. Duration                       : 11mn 50s
  59. Bit rate mode                  : Constant
  60. Bit rate                       : 384 Kbps
  61. Channel(s)                     : 2 channels
  62. Sampling rate                  : 48.0 KHz
  63. Compression mode               : Lossy
  64. Delay relative to video        : -280ms
  65. Stream size                    : 32.5 MiB (2%)

  66. Menu
  67. ID                             : 4095 (0xFFF)
  68. Menu ID                        : 1 (0x1)
  69. Duration                       : 3h 52mn
  70. List                           : 256 (0x100) (AVC) / 257 (0x101) (MPEG Audio) / 258 (0x102) (MPEG Audio)
  71. Service name                   : Service01
  72. Service provider               : FFmpeg
  73. Service type                   : digital television
复制代码

购买主题 已有 22 人购买  本主题需向作者支付 30 金钱 才能浏览
回复

使用道具 举报

签到天数: 498 天

[LV.9]以坛为家II

17

好友

4

听众

1万

积分

VIP

Rank: 8Rank: 8

积分
18391
发表于 2016-3-27 12:35:13 | 显示全部楼层
奶奶的,没上传就发帖,害我瞎激动

评分

参与人数 1威望 -1 收起 理由
root -1 传好了

查看全部评分

土耳其冰淇淋
回复 支持 1 反对 0

使用道具 举报

该用户从未签到

0

好友

0

听众

8506

积分

论坛元老

Rank: 8Rank: 8

积分
8506
发表于 2016-3-27 12:50:17 | 显示全部楼层
thanks for sharing
回复 支持 反对

使用道具 举报

签到天数: 84 天

[LV.6]常住居民II

7

好友

0

听众

1184

积分

金牌会员

Rank: 6Rank: 6

积分
1184
发表于 2016-3-27 14:05:36 | 显示全部楼层
jaychou118118
回复 支持 反对

使用道具 举报

该用户从未签到

0

好友

0

听众

1万

积分

VIP

Rank: 8Rank: 8

积分
12132
发表于 2016-3-27 14:21:19 | 显示全部楼层
屌爆了,找了多少天终于见到了,还特么是sng源码的,赶紧下来看看
回复 支持 反对

使用道具 举报

签到天数: 3 天

[LV.2]偶尔看看I

0

好友

0

听众

9236

积分

论坛元老

Rank: 8Rank: 8

积分
9236
发表于 2016-3-27 19:10:37 | 显示全部楼层
感觉很吊~看看画质有多叼
回复 支持 反对

使用道具 举报

该用户从未签到

0

好友

0

听众

8102

积分

论坛元老

Rank: 8Rank: 8

积分
8102
发表于 2016-3-27 20:58:13 | 显示全部楼层
谢谢分享 支持~~~~~~~~~~~~~~~~~~~
回复 支持 反对

使用道具 举报

该用户从未签到

0

好友

0

听众

7918

积分

论坛元老

Rank: 8Rank: 8

积分
7918
发表于 2016-3-27 22:11:19 | 显示全部楼层
这东西找了好久勒,谢谢!!
回复 支持 反对

使用道具 举报

本版积分规则

QQ|手机版|小黑屋|

GMT+8, 2017-1-22 18:04 , Processed in 0.147450 second(s), 40 queries .

Powered by hdjay! X3

© 2001-2013 cola.

快速回复 返回顶部 返回列表